VOTING

To us have got with?
Google
Yandex
Mail
WebAlta
Yahoo
Bing
Catalogue
Other site

NEWS ARCHIVE


December 2016 (267)
November 2016 (1563)
October 2016 (1951)
September 2016 (2193)
August 2016 (2151)
July 2016 (2345)

 

Panty Hoes (2001)

Category: Anal

Tags: New Sensations, All Sex, Straight
 | Date: 22-02-2011, 08:50  | Views: 890

Panty Hoes (2001)

Молоденькие американочки замнивают парней своими сексуальными нарядами, и каково же удивление, когда под колготочками нет трусиков! Кто то наверное заведет приватную беседу с этими похотливыми созданиями, но только не герои этого сериала - у них все гораздо проще! Зачем снимать, когда член уже дымится - можно просто разорвать и в перед!

Название: Шлюшки В Колготках
Оригинальное название: Panty Hoes
Год выхода: 2001
Страна: USA
Жанр: All Sex, Straight
Студия: New Sensations
Режиссер: Scott Taylor
В ролях: Lita Chase, Bianca, Sheila, Jeanie Rivers, Alexis
Продолжительность: 1h 41min

Файл
Формат: MPEG
Качество: DVDRip
Видео: Format : MPEG-4 Visual Format settings, BVOP : Yes Format settings, QPel : No Format settings, GMC : 2 warppoints Format settings, Matrix : Default Muxing mode : Packed bitstream Codec ID : DX50 Codec ID/Hint : DivX 5 Duration : 1h 41mn Bit rate : 836 Kbps Width : 352 pixels Height : 272 pixels Display aspect ratio : 1.294 Frame rate : 29.970 fps Resolution : 24 bits Scan type : Progressive Bits/(Pixel*Frame) : 0.291 Stream size : 605 MiB (87%) Writing library : DivX 5.0.2 (UTC 2002-05-16)
Звук: Format : MPEG Audio Format version : Version 1 Format profile : Layer 3 Codec ID : 55 Codec ID/Hint : MP3 Duration : 1h 40mn Bit rate mode : Variable Bit rate : 115 Kbps Nominal bit rate : 128 Kbps Channel(s) : 2 channels Sampling rate : 48.0 KHz Resolution : 16 bits Stream size : 83.1 MiB (12%) Alignment : Aligned on interleaves Interleave, duration : 24 ms (0.72 video frame) Interleave, preload duration : 483 ms Writing library : LAME3.92 Encoding settings : ABR
Размер: 699 MB

Panty Hoes (2001)Panty Hoes (2001)

Скачать: Panty Hoes (2001) DVDRip
Download Panty Hoes (2001) free from NitroFlare, Uploaded, k2s.cc and free files storage, click on the link above.
At the time of publication, all links are working


Added: bananbel



Comments:
Name:*
E-Mail:
Add comment:
bold italic underline strike | align left centered align right | Ensert smilies Choice the color | hidden text insert quote Convert selected text from transliteration to Cyrillic alphabet Insert spoiler
Question:
Last name of the new president of America?
The answer:*
Enter a code: *